berserk the golden age arc 3 eng sub stream

 

 

 

 

A Girl Who Leapt Through Time Movie Eng Sub. Aachi Ssipak. Ace O Nerae 1979.Berserk Ougon Jidaihen Iii Kourin. Beyblade The Movie. Black Jack A Film. You can use it to streaming on your TV. - If you dont hear the sounds, please try another server or use Desktop browsers to watch.Openload Choose This Server. Berserk: The Golden Age Arc Iii - Descent HD-720p2016-07-09. Teaser from Berserk: The Golden Age Arc II. BERSERK HD (eng dub) Chapter 3 - Zodd the Immortal.Berserk Golden Age Arc II: The Battle for Doldrey Trailer (English Sub). Text ID : 3 Format : ASS Codec ID : STEXT/ASS Codec ID/Info : Advanced Sub Station Alpha Duration : 1 h 50 min Bit rate : 48 b/s Count of elements : 823 Compression mode : Lossless Stream size : 39.5 KiB (0) Title : Berserk: The Golden Age Arc III - The Advent Language : English. Text ID : 3 Format : ASS Codec ID : STEXT/ASS Codec ID/Info : Advanced Sub Station Alpha Duration : 1 h 10 min Bit rate : 87 b/s Count of elements : 785 Compression mode : Lossless Stream size : 44.9 KiB (0) Title : Berserk: The Golden Age Arc - The Egg of the King [ ENG] Berserk: The Golden Age Arc III - The Advent Movie English Sub Online. Just click the play button and enjoy the show. If the video is not working feel free to report it via "Report Broken Video" button below the video. Find great deals for Berserk: The Golden Age Arc 3 - The Advent (DVD, item 6 WARNER HOME VIDEO D349129D BERSERK-GOLDEN AGE ARC 3-ADVENT (DVD/ENG-SUB) Berserk Golden Age Arc 3 English Dub. usenet.nl - 30.10.2015.

Agent (2017) BluRay 720p Film Streaming Movie Download Sub Indo Televisi21. Synonyms : Berserk Movie Berserk Saga Berserk: Golden Age Arc III - Descent Berserk: Ougon Jidaihen III - Kourin. Genres : Military Seinen Fantasy Action Demons Adventure Supernatural. Basilisk: Ouka Ninpouchou Episode 8 English Subbed. Spiritpact Season 2 Episode 1 English Subbed. Ryuuou no Oshigoto! Berserk Golden Age Arc 3: The Advent - Продолжительность: 1:52:41 Arcturus Azathoth 313 042 просмотра.

Berserk - A Era de Ouro III - Declnio [ Legendado ] - Продолжительность: 1:53:15 CHERNOBIL G 77 222 просмотра. Latest Oldest Seeds Peers Year Rating Likes Alphabetical Downloads. Berserk: The Golden Age Arc 3 - The Advent.Subs3Eng.srt [48044.00]. Berserk The Golden Age Arc I The Egg of the King Netflix.Directed Toshiyuki Kubooka film bluray 480p 720p mp4 eng sub indo lk21, indoxxi industry contacts talent representation. Berserk: Ougon Jidai-hen III - Kourin Berserk Movie Berserk Saga Berserk: Golden Age Arc III - Descent .This is the birth of the fifth guardian and the beginning of an age where darkness overcomes all light. To download or stream you need BitLord. Visit them at BitLord.com.Berserk Golden Age Arc I, II, III (2013) BDRip 1080p 5.1Ch Legendado Download from Movies. I would buy this if it had Japanese audio and English subtitles. Im sure Im not the only one. Whos with me? < > Showing 1-0 of 0 comments. Berserk: The Golden Age Arc 3 - The Advent. English Dub, 1997/2013 fan movie compilation.Berserk: Millennium Falcon THE MOVIE (SUB ENG). Скачать видео Berserk The Golden Age Arc 3 ( English Dub ) 3GP 144p, 3GP 240p, MP4 360p, MP4 720p. Berserk: Golden Age Arc I - The Egg of the King Episode 1 English Subbed at gogoanime. Category: Movies. You can use it to streaming on your TV. - If you dont hear the sounds, please try another server or use Desktop browsers to watch.Yourupload Choose This Server. Berserk: The Golden Age Arc Iii - Descent HD-720p 2016-07-09. Tip: You can switch between subbed/dubbed and hosts with the Change Video button below the video. Watch trailer. Berserk: The Golden Age Arc 3 The Advent. 0 0. Berserk: The Golden Age Arc III - The Advent Episode 1. Back to series. Source: 1. details. Trailer. Dowload sub. Add to Favorites. Berserk: Golden Age Arc I - The Egg of the King (Dub).Berserk: Golden Age Arc II - The Battle for Doldrey (Sub). Berserk Ougon Jidaihen Iii Kourin.

A Girl Who Leapt Through Time Movie Eng Sub. Hajime No Ippo Movie. Final Fantasy Legend Of The Crystals. Action, animation, fantasy. A year has passed since Guts parted ways with the Band of the Hawks. Meanwhile, his former mercenary group is plotting a rescue mission to save an imprisoned Griffith. Running time: 1:50:00. www.powerstrokerepairs.com » Berserk golden » Berserk golden age arc eng sub.Stream movie Berserk: Golden Age Arc - Egg of the King Watch Berserk: The Golden Age Arc III - The Advent Episodes Online for Free. Watch Berserk Golden Age Arc Ii The Capture Of Doldrey Sub Online English SubbedBerserk 2016 9 Online Sub Espa Stream Berserk golden age arc iii legendado pt br. All categories Anime - Anime Music Video - English-translated - Non- English-translated - Raw Audio - Lossless - Lossy Literature - English-translated - Non- English-translated - Raw Live Action - English-translated - Idol/Promotional Video - Non- English-translated - Raw Pictures - Graphics Loading Informations : English Name : Berserk : The Golden Age Arc III - The Advent. Berserk Golden Age Arc Movies - Episode 3 Egg of the Supreme Ruler, The Battle for Doldrey, Descent. Watch Berserk - Golden Age. Egg of the High King english dubbed / subbed online for free. Synonyms: Berserk Movie, Berserk Saga, Berserk Golden Age Arc I. Duration: 1:32:58 Language: English. English Berserk The Golden Age Arc III (BD 1280x720 AVC AAC). 1. vordrax.All Characters are correctly identified in the subs as they speak. They are Emperor Gaiseric, Zodd, and Silat. Gaston, Judeau, Pippin, and Corkus. Just as things are beginning to look grim for them, Guts reappears and saves them. Guts rejoins his friends and em. Watch berserk the golden ageXmovies8.tv is the best movie site, where you can watch movies online completely free. No download, no surveys and only instant streaming of movies. Other names:Berserk: Ougon Jidai-hen II - Doldrey Kouryaku.Dragon Ball Super Episode 127 English Subbed Countdown. This is the birth of the fifth guardian and the beginning of an age where darkness overcomes all light. Language: English Sub,English Dub Status: Anime Movie Aired:Feb 1, 2013 Genres: ActionSlip Arc (Sub)-Ep 13. Crayon Shin-chan (Dub) Ep.78. The Morose Mononokean (Dub)-Ep 02. Thank you for your report!. Berserk: The Golden Age Arc Iii - Descent.Watch free online movies 123movies subbed movie with subtitles Free online movies 2018 PUTLOCKER. You need to enable browsers cookie to stream. The Golden Girls - Season 3.No download, no surveys and only instant streaming of movies. The latest movies and highest quality for you. Enjoy your favorite movies with WATCH5S.TO. Running time: 1:50:00. Language: ENGLISH SUBTITLES. Last Update: 19 February 2018. Watch Berserk: The Golden Age Arc 3 - The Advent Online. 100 legal and full length. Watch now!.User. Watch online. - English Subbed. 9 months. Markus. Get this torrent PLAY/STREAM TORRENT.This is a Hi Res Rip of the 2nd Berserk movie- Berserk: Golden Age Arc II- Battle For Doldrey.the Eng sub is OK 70 if i may say waiting smaller size like 1 gig thanks for upload. Miraculous Ladybug (Sub) Season 2 (2017). You are hereBerserk - Golden Age Chapter I - Egg of the High King / Berserk Golden Age Arc III: Kourin Episode 3. Berserk Golden Age Arc II: The Capture of Doldrey Episode 2 up. Berserk: The Golden Age Arc Iii - Descent. IMDb 7.9110 min. When all hopes and dreams Griffith shattered , thats when words Nosferatu Zodd told Gatts gradually become a reality: "If you regarded him as your friend, prepare to face to the inevitable death ". Text ID : 3 Format : ASS Codec ID : STEXT/ASS Codec ID/Info : Advanced Sub Station Alpha Duration : 1 h 10 min Bit rate : 87 b/s Count of elements : 785 Compression mode : Lossless Stream size : 44.9 KiB (0) Title : Berserk: The Golden Age Arc - The Egg of the King [ ENG] Aladdin and the King of Thieves. HD. Fools Gold. Only at StreamAnime.TV your source for all things English Dubbed Subbed Anime.Naruto Shippuden English Dub. episodes! Bookmark us! Ramen Daisuki Koizumi-san Episode 8 English Subbed. Star Blazers 2199 Episode 16 English Dubbed.Episode List. Berserk: The Golden Age Arc III The Advent English Dubbed.

new posts